Asian.School.Girls.2014.UNRATED.HDRip.XviD.AC3-RARBG

seeders: 0
leechers: 2
updated:
Added by TryMeS583.54K in Movies
Torrent verified. Downloaded 52 times.

DownloadFast Safe Anonymous
movies, software, shows...
Summary:

Violence and mayhem ensue after four school girls stumble upon an underground night club.

Written by Mughal12521.79K
Available in versions: 1080p720pBlu-RayHDRiPx264
Asian.School.Girls.2014.UNRATED.HDRip.XviD.AC3-RARBG (Size: 1.26 GB)
  Asian.School.Girls.2014.UNRATED.HDRip.XviD.AC3-RARBG.avi 1.26 GB
  rarbg.com.avi 1.14 MB
  Asian.School.Girls.2014.UNRATED.HDRip.XviD.AC3-RARBG.nfo 3.13 KB
  rarbg.com.txt 34 bytes

Description

Asian.School.Girls.2014.UNRATED.HDRip.XviD.AC3-RARBG

image

Title: Asian School Girls (Video 2014)
Genres: Action , Thriller
Actors: Sam Aotaki , Catherine Hyein Kim , Andrew Callahan , Lucas Davis , John C. Epperson , Kevin Ging , Rich Grosso , Belle Hengsathorn , Jeff Houkal , Andray Johnson , William Thomas Jones , Jonah Keal , Danny Ledsinger , Kris Le-Roy , Mitch Lerner
Runtime: 91
Year: 2014

Asian.School.Girls.2014.UNRATED.HDRip.XviD.AC3-RARBG

http://imdb.com/title/tt3421270/

image

Info:
Format : AVI
Format/Info : Audio Video Interleave
File size : 1.26 GiB
Duration : 1h 30mn
Overall bit rate : 1 990 Kbps
Movie name : RARBG.COM - Asian.School.Girls.2014.UNRATED.HDRip.XviD.AC3-RARBG
Writing library : VirtualDub build 35491/release
Comment : RARBG.COM - Asian.School.Girls.2014.UNRATED.HDRip.XviD.AC3-RARBG

Video
ID : 0
Format : MPEG-4 Visual
Format profile : [email protected]
Format settings, BVOP : No
Format settings, QPel : No
Format settings, GMC : No warppoints
Format settings, Matrix : Default (H.263)
Codec ID : XVID
Codec ID/Hint : XviD
Duration : 1h 30mn
Bit rate : 1 597 Kbps
Width : 720 pixels
Height : 400 pixels
Display aspect ratio : 16:9
Frame rate : 23.976 fps
Color space : YUV
Chroma subsampling : 4:2:0
Bit depth : 8 bits
Scan type : Progressive
Compression mode : Lossy
Bits/(Pixel*Frame) : 0.231
Stream size : 1.01 GiB (80%)
Writing library : Lavc55.55.104

Audio
ID : 1
Format : AC-3
Format/Info : Audio Coding 3
Mode extension : CM (complete main)
Format settings, Endianness : Big
Codec ID : 2000
Duration : 1h 30mn
Bit rate mode : Constant
Bit rate : 384 Kbps
Channel(s) : 6 channels
Channel positions : Front: L C R, Side: L R, LFE
Sampling rate : 48.0 KHz
Bit depth : 16 bits
Compression mode : Lossy
Stream size : 249 MiB (19%)
Alignment : Aligned on interleaves
Interleave, duration : 42 ms (1.00 video frame)
Interleave, preload duration : 512 ms










Screens:
image
image
image
image




Notes:
Greetz to everyone :)

Related Torrents

torrent name size files age seed leech

Sharing Widget


Download torrent
1.26 GB
seeders:0
leechers:2
Asian.School.Girls.2014.UNRATED.HDRip.XviD.AC3-RARBG



To share this torrent use the code below and insert it into comments, status messages, forum posts or your signature.

Torrent: Asian.School.Girls.2014.UNRATED.HDRip.XviD.AC3-RARBG

Trackers

tracker name
udp://tracker.openbittorrent.com:80/announce
udp://tracker.publicbt.com:80/announce
udp://tracker.istole.it:80/announce
udp://9.rarbg.com:2710/announce
udp://9.rarbg.me:2710/announce
udp://open.demonii.com:1337/announce
udp://12.rarbg.me:80/announce
udp://11.rarbg.me:80/announce
udp://tracker.ccc.de:80/announce
udp://10.rarbg.me:80/announce
ĀµTorrent compatible trackers list

Locations

name
KickassTorrents
ThePirateBay
Torrent hash: 354CCF27464F94C17130E328E3BE5F7DB3F72CA6

All Comments

audio
0/10
video
0/10
please, leave only comments related to that torrent
Sign In


User Opinions

Report a bug Open chat